osu file format v14

[General]
AudioFilename: chinese restaurant.mp3
AudioLeadIn: 1500
PreviewTime: -1
Countdown: 0
SampleSet: Soft
StackLeniency: 0.7
Mode: 3
LetterboxInBreaks: 0
WidescreenStoryboard: 1

[Editor]
DistanceSpacing: 0.5
BeatDivisor: 4
GridSize: 4
TimelineZoom: 2.6

[Metadata]
Title:Chinese Restaurant
TitleUnicode:Chinese Restaurant
Artist:memme
ArtistUnicode:memme
Creator:Aery-
Version:5k HD
Source:Pump It Up Prime 2015
Tags:oriental core
BeatmapID:653062
BeatmapSetID:289783

[Difficulty]
HPDrainRate:9
CircleSize:5
OverallDifficulty:9
ApproachRate:5
SliderMultiplier:1.4
SliderTickRate:1

[Events]
//Background and Video events
0,0,"2.jpg",0,0
//Break Periods
//Storyboard Layer 0 (Background)
//Storyboard Layer 1 (Fail)
//Storyboard Layer 2 (Pass)
//Storyboard Layer 3 (Foreground)
//Storyboard Sound Samples

[TimingPoints]
1508,342.857142857143,4,2,0,60,1,0

[HitObjects]
51,192,822,5,0,0:0:0:0:
358,192,822,1,0,0:0:0:0:
256,192,993,1,0,0:0:0:0:
153,192,1079,1,0,0:0:0:0:
460,192,1165,128,0,1508:0:0:0:0:
51,192,1336,128,0,1508:0:0:0:0:
358,192,1508,1,0,0:0:0:0:
153,192,1508,1,0,0:0:0:0:
460,192,1679,1,0,0:0:0:0:
256,192,1679,1,0,0:0:0:0:
358,192,1765,1,0,0:0:0:0:
256,192,1850,1,0,0:0:0:0:
51,192,2022,1,0,0:0:0:0:
460,192,2022,1,0,0:0:0:0:
358,192,2193,1,0,0:0:0:0:
153,192,2193,1,0,0:0:0:0:
256,192,2279,1,0,0:0:0:0:
153,192,2365,1,0,0:0:0:0:
460,192,2536,1,0,0:0:0:0:
51,192,2536,1,0,0:0:0:0:
256,192,2708,1,0,0:0:0:0:
51,192,2708,1,0,0:0:0:0:
153,192,2793,1,0,0:0:0:0:
51,192,2879,1,0,0:0:0:0:
51,192,3050,1,0,0:0:0:0:
460,192,3050,1,0,0:0:0:0:
358,192,3222,1,0,0:0:0:0:
153,192,3222,1,0,0:0:0:0:
256,192,3308,1,0,0:0:0:0:
153,192,3393,1,0,0:0:0:0:
358,192,3565,1,0,0:0:0:0:
51,192,3565,1,0,0:0:0:0:
256,192,3650,1,0,0:0:0:0:
358,192,3736,1,0,0:0:0:0:
256,192,3822,1,0,0:0:0:0:
153,192,3908,1,0,0:0:0:0:
460,192,4079,1,0,0:0:0:0:
256,192,4079,1,0,0:0:0:0:
51,192,4079,1,0,0:0:0:0:
358,192,4422,1,0,0:0:0:0:
153,192,4593,1,0,0:0:0:0:
51,192,4593,1,0,0:0:0:0:
358,192,4765,1,0,0:0:0:0:
256,192,4936,1,0,0:0:0:0:
51,192,4936,1,0,0:0:0:0:
460,192,5108,1,0,0:0:0:0:
358,192,5279,1,0,0:0:0:0:
51,192,5279,1,0,0:0:0:0:
51,192,5450,1,0,0:0:0:0:
153,192,5450,1,0,0:0:0:0:
460,192,5450,1,0,0:0:0:0:
51,192,5793,128,0,6308:0:0:0:0:
153,192,5965,128,0,6308:0:0:0:0:
256,192,6136,128,0,6308:0:0:0:0:
358,192,6308,1,0,0:0:0:0:
460,192,6479,1,0,0:0:0:0:
153,192,6565,1,0,0:0:0:0:
460,192,6650,1,0,0:0:0:0:
153,192,6822,1,0,0:0:0:0:
256,192,6908,1,0,0:0:0:0:
51,192,6993,1,0,0:0:0:0:
358,192,6993,1,0,0:0:0:0:
51,192,7336,1,0,0:0:0:0:
153,192,7336,1,0,0:0:0:0:
51,192,7679,1,0,0:0:0:0:
358,192,7679,1,0,0:0:0:0:
460,192,7850,1,0,0:0:0:0:
358,192,7936,1,0,0:0:0:0:
51,192,8022,1,0,0:0:0:0:
256,192,8022,1,0,0:0:0:0:
153,192,8193,1,0,0:0:0:0:
51,192,8365,1,0,0:0:0:0:
358,192,8536,1,0,0:0:0:0:
256,192,8622,1,0,0:0:0:0:
358,192,8708,1,0,0:0:0:0:
51,192,8708,1,0,0:0:0:0:
153,192,8879,1,0,0:0:0:0:
256,192,9050,1,0,0:0:0:0:
51,192,9050,1,0,0:0:0:0:
358,192,9222,1,0,0:0:0:0:
460,192,9308,1,0,0:0:0:0:
51,192,9393,1,0,0:0:0:0:
358,192,9393,1,0,0:0:0:0:
256,192,9565,1,0,0:0:0:0:
51,192,9736,1,0,0:0:0:0:
153,192,9736,1,0,0:0:0:0:
256,192,10079,1,0,0:0:0:0:
51,192,10079,1,0,0:0:0:0:
51,192,10422,1,0,0:0:0:0:
358,192,10422,1,0,0:0:0:0:
51,192,10765,1,0,0:0:0:0:
460,192,10765,1,0,0:0:0:0:
256,192,10936,1,0,0:0:0:0:
51,192,11108,1,0,0:0:0:0:
460,192,11279,1,0,0:0:0:0:
358,192,11365,1,0,0:0:0:0:
51,192,11450,1,0,0:0:0:0:
460,192,11450,1,0,0:0:0:0:
256,192,11536,1,0,0:0:0:0:
358,192,11622,1,0,0:0:0:0:
256,192,11708,1,0,0:0:0:0:
358,192,11793,1,0,0:0:0:0:
51,192,11793,1,0,0:0:0:0:
153,192,11879,1,0,0:0:0:0:
256,192,11965,1,0,0:0:0:0:
51,192,12136,128,0,12393:0:0:0:0:
460,192,12136,128,0,12393:0:0:0:0:
460,192,12479,1,0,0:0:0:0:
51,192,12479,1,0,0:0:0:0:
460,192,12822,1,0,0:0:0:0:
153,192,12822,1,0,0:0:0:0:
460,192,13165,1,0,0:0:0:0:
256,192,13165,1,0,0:0:0:0:
460,192,13508,1,0,0:0:0:0:
358,192,13508,1,0,0:0:0:0:
153,192,13679,1,0,0:0:0:0:
460,192,13850,1,0,0:0:0:0:
358,192,14022,1,0,0:0:0:0:
460,192,14193,1,0,0:0:0:0:
153,192,14193,1,0,0:0:0:0:
256,192,14279,1,0,0:0:0:0:
51,192,14365,1,0,0:0:0:0:
460,192,14536,1,0,0:0:0:0:
358,192,14536,1,0,0:0:0:0:
51,192,14708,1,0,0:0:0:0:
153,192,14793,1,0,0:0:0:0:
460,192,14879,1,0,0:0:0:0:
358,192,14879,1,0,0:0:0:0:
256,192,14965,1,0,0:0:0:0:
153,192,15050,1,0,0:0:0:0:
460,192,15222,1,0,0:0:0:0:
256,192,15222,1,0,0:0:0:0:
153,192,15479,1,0,0:0:0:0:
460,192,15565,1,0,0:0:0:0:
358,192,15565,1,0,0:0:0:0:
460,192,15736,1,0,0:0:0:0:
256,192,15736,1,0,0:0:0:0:
460,192,15908,1,0,0:0:0:0:
51,192,15908,1,0,0:0:0:0:
153,192,16079,1,0,0:0:0:0:
256,192,16165,1,0,0:0:0:0:
460,192,16250,1,0,0:0:0:0:
358,192,16250,1,0,0:0:0:0:
460,192,16422,1,0,0:0:0:0:
51,192,16422,1,0,0:0:0:0:
51,192,16765,1,0,0:0:0:0:
153,192,16850,1,0,0:0:0:0:
460,192,16936,1,0,0:0:0:0:
256,192,16936,1,0,0:0:0:0:
153,192,17108,1,0,0:0:0:0:
256,192,17193,1,0,0:0:0:0:
460,192,17279,1,0,0:0:0:0:
358,192,17279,1,0,0:0:0:0:
153,192,17536,1,0,0:0:0:0:
153,192,17622,1,0,0:0:0:0:
256,192,17793,1,0,0:0:0:0:
460,192,17793,1,0,0:0:0:0:
51,192,17793,128,0,18050:0:0:0:0:
358,192,18136,1,0,0:0:0:0:
51,192,18136,1,0,0:0:0:0:
256,192,18222,1,0,0:0:0:0:
358,192,18308,1,0,0:0:0:0:
51,192,18308,1,0,0:0:0:0:
358,192,18479,1,0,0:0:0:0:
51,192,18479,1,0,0:0:0:0:
358,192,18650,1,0,0:0:0:0:
153,192,18650,1,0,0:0:0:0:
358,192,18822,1,0,0:0:0:0:
51,192,18822,1,0,0:0:0:0:
358,192,18993,1,0,0:0:0:0:
51,192,18993,1,0,0:0:0:0:
358,192,19165,1,0,0:0:0:0:
256,192,19165,128,0,19422:0:0:0:0:
256,192,19508,1,0,0:0:0:0:
153,192,19508,1,0,0:0:0:0:
358,192,19593,1,0,0:0:0:0:
256,192,19679,1,0,0:0:0:0:
153,192,19679,1,0,0:0:0:0:
256,192,19850,1,0,0:0:0:0:
358,192,19850,1,0,0:0:0:0:
256,192,20022,1,0,0:0:0:0:
460,192,20022,1,0,0:0:0:0:
256,192,20193,1,0,0:0:0:0:
358,192,20193,1,0,0:0:0:0:
153,192,20250,1,0,0:0:0:0:
358,192,20308,1,0,0:0:0:0:
256,192,20365,1,0,0:0:0:0:
51,192,20365,1,0,0:0:0:0:
51,192,20536,1,0,0:0:0:0:
51,192,20708,1,0,0:0:0:0:
358,192,20708,1,0,0:0:0:0:
358,192,20879,1,0,0:0:0:0:
256,192,20965,1,0,0:0:0:0:
153,192,21050,1,0,0:0:0:0:
153,192,21222,1,0,0:0:0:0:
256,192,21308,1,0,0:0:0:0:
358,192,21393,1,0,0:0:0:0:
256,192,21565,1,0,0:0:0:0:
358,192,21650,1,0,0:0:0:0:
51,192,21736,1,0,0:0:0:0:
153,192,21822,1,0,0:0:0:0:
256,192,21908,128,0,22165:0:0:0:0:
358,192,22250,1,0,0:0:0:0:
153,192,22336,1,0,0:0:0:0:
51,192,22422,1,0,0:0:0:0:
153,192,22593,1,0,0:0:0:0:
358,192,22679,1,0,0:0:0:0:
460,192,22765,1,0,0:0:0:0:
256,192,22850,1,0,0:0:0:0:
358,192,22936,1,0,0:0:0:0:
153,192,23022,1,0,0:0:0:0:
51,192,23108,1,0,0:0:0:0:
256,192,23108,1,0,0:0:0:0:
51,192,23279,1,0,0:0:0:0:
460,192,23279,128,0,23536:0:0:0:0:
460,192,23622,1,0,0:0:0:0:
256,192,23622,1,0,0:0:0:0:
153,192,23708,1,0,0:0:0:0:
460,192,23793,1,0,0:0:0:0:
51,192,23793,1,0,0:0:0:0:
460,192,23965,1,0,0:0:0:0:
51,192,23965,1,0,0:0:0:0:
460,192,24136,1,0,0:0:0:0:
256,192,24136,1,0,0:0:0:0:
460,192,24308,1,0,0:0:0:0:
153,192,24308,1,0,0:0:0:0:
460,192,24479,1,0,0:0:0:0:
153,192,24479,1,0,0:0:0:0:
460,192,24650,1,0,0:0:0:0:
51,192,24650,128,0,24908:0:0:0:0:
51,192,24993,1,0,0:0:0:0:
153,192,24993,1,0,0:0:0:0:
358,192,25079,1,0,0:0:0:0:
51,192,25165,1,0,0:0:0:0:
153,192,25165,1,0,0:0:0:0:
460,192,25336,1,0,0:0:0:0:
51,192,25336,1,0,0:0:0:0:
51,192,25508,1,0,0:0:0:0:
358,192,25508,1,0,0:0:0:0:
51,192,25679,1,0,0:0:0:0:
256,192,25679,1,0,0:0:0:0:
460,192,25736,1,0,0:0:0:0:
256,192,25793,1,0,0:0:0:0:
51,192,25850,1,0,0:0:0:0:
153,192,25850,1,0,0:0:0:0:
51,192,26022,1,0,0:0:0:0:
460,192,26022,1,0,0:0:0:0:
51,192,26193,1,0,0:0:0:0:
256,192,26193,1,0,0:0:0:0:
460,192,26193,1,0,0:0:0:0:
358,192,26365,1,0,0:0:0:0:
460,192,26450,1,0,0:0:0:0:
256,192,26536,1,0,0:0:0:0:
358,192,26622,1,0,0:0:0:0:
153,192,26708,1,0,0:0:0:0:
51,192,26879,128,0,27050:0:0:0:0:
153,192,27050,1,0,0:0:0:0:
256,192,27136,1,0,0:0:0:0:
358,192,27222,1,0,0:0:0:0:
460,192,27308,1,0,0:0:0:0:
51,192,27393,1,0,0:0:0:0:
153,192,27393,128,0,27736:0:0:0:0:
256,192,27736,1,0,0:0:0:0:
358,192,27908,1,0,0:0:0:0:
51,192,28079,1,0,0:0:0:0:
460,192,28250,1,0,0:0:0:0:
256,192,28250,1,0,0:0:0:0:
358,192,28336,1,0,0:0:0:0:
153,192,28336,1,0,0:0:0:0:
256,192,28422,1,0,0:0:0:0:
51,192,28422,1,0,0:0:0:0:
358,192,28936,1,0,0:0:0:0:
51,192,28936,1,0,0:0:0:0:
358,192,29108,1,0,0:0:0:0:
256,192,29193,1,0,0:0:0:0:
51,192,29279,1,0,0:0:0:0:
153,192,29279,1,0,0:0:0:0:
358,192,29450,1,0,0:0:0:0:
51,192,29622,1,0,0:0:0:0:
460,192,29622,1,0,0:0:0:0:
256,192,29793,1,0,0:0:0:0:
256,192,29965,1,0,0:0:0:0:
51,192,29965,1,0,0:0:0:0:
153,192,30136,128,0,30479:0:0:0:0:
51,192,30308,1,0,0:0:0:0:
256,192,30479,1,0,0:0:0:0:
51,192,30650,1,0,0:0:0:0:
256,192,30650,1,0,0:0:0:0:
358,192,30822,1,0,0:0:0:0:
460,192,30993,1,0,0:0:0:0:
51,192,30993,1,0,0:0:0:0:
256,192,31165,1,0,0:0:0:0:
153,192,31222,1,0,0:0:0:0:
256,192,31279,1,0,0:0:0:0:
51,192,31336,1,0,0:0:0:0:
460,192,31336,1,0,0:0:0:0:
153,192,31508,1,0,0:0:0:0:
51,192,31679,1,0,0:0:0:0:
460,192,31679,1,0,0:0:0:0:
460,192,31850,1,0,0:0:0:0:
358,192,31936,1,0,0:0:0:0:
51,192,32022,1,0,0:0:0:0:
256,192,32022,1,0,0:0:0:0:
153,192,32193,1,0,0:0:0:0:
256,192,32279,1,0,0:0:0:0:
51,192,32365,1,0,0:0:0:0:
358,192,32365,1,0,0:0:0:0:
358,192,32536,1,0,0:0:0:0:
256,192,32622,1,0,0:0:0:0:
51,192,32708,1,0,0:0:0:0:
153,192,32708,1,0,0:0:0:0:
256,192,32879,1,0,0:0:0:0:
358,192,32965,1,0,0:0:0:0:
51,192,33050,1,0,0:0:0:0:
460,192,33050,1,0,0:0:0:0:
358,192,33222,1,0,0:0:0:0:
460,192,33308,1,0,0:0:0:0:
256,192,33393,1,0,0:0:0:0:
51,192,33393,1,0,0:0:0:0:
358,192,33479,1,0,0:0:0:0:
153,192,33565,1,0,0:0:0:0:
256,192,33650,1,0,0:0:0:0:
358,192,33736,1,0,0:0:0:0:
51,192,33736,1,0,0:0:0:0:
460,192,33822,1,0,0:0:0:0:
256,192,33908,1,0,0:0:0:0:
358,192,33993,1,0,0:0:0:0:
153,192,34079,1,0,0:0:0:0:
51,192,34079,1,0,0:0:0:0:
358,192,34250,1,0,0:0:0:0:
256,192,34336,1,0,0:0:0:0:
51,192,34422,1,0,0:0:0:0:
153,192,34422,1,0,0:0:0:0:
460,192,34593,1,0,0:0:0:0:
358,192,34679,1,0,0:0:0:0:
256,192,34765,1,0,0:0:0:0:
51,192,34936,1,0,0:0:0:0:
460,192,34936,1,0,0:0:0:0:
358,192,35108,1,0,0:0:0:0:
256,192,35193,1,0,0:0:0:0:
153,192,35279,1,0,0:0:0:0:
460,192,35450,1,0,0:0:0:0:
51,192,35450,1,0,0:0:0:0:
256,192,35622,1,0,0:0:0:0:
153,192,35708,1,0,0:0:0:0:
256,192,35793,1,0,0:0:0:0:
51,192,35965,1,0,0:0:0:0:
460,192,35965,1,0,0:0:0:0:
358,192,36136,1,0,0:0:0:0:
256,192,36222,1,0,0:0:0:0:
358,192,36308,1,0,0:0:0:0:
460,192,36479,1,0,0:0:0:0:
51,192,36479,1,0,0:0:0:0:
256,192,36565,1,0,0:0:0:0:
358,192,36650,1,0,0:0:0:0:
153,192,36736,1,0,0:0:0:0:
256,192,36822,1,0,0:0:0:0:
358,192,36993,1,0,0:0:0:0:
460,192,36993,1,0,0:0:0:0:
51,192,36993,1,0,0:0:0:0:
51,192,37508,1,0,0:0:0:0:
51,192,37850,1,0,0:0:0:0:
51,192,38193,1,0,0:0:0:0:
51,192,38365,1,0,0:0:0:0:
153,192,38708,1,0,0:0:0:0:
256,192,38793,1,0,0:0:0:0:
358,192,38879,1,0,0:0:0:0:
460,192,38965,1,0,0:0:0:0:
153,192,39050,1,0,0:0:0:0:
256,192,39136,1,0,0:0:0:0:
460,192,39222,1,0,0:0:0:0:
51,192,39222,1,0,0:0:0:0:
358,192,39565,1,0,0:0:0:0:
256,192,39736,1,0,0:0:0:0:
153,192,39908,1,0,0:0:0:0:
51,192,39908,1,0,0:0:0:0:
256,192,40250,1,0,0:0:0:0:
460,192,40593,1,0,0:0:0:0:
358,192,40593,1,0,0:0:0:0:
256,192,40936,1,0,0:0:0:0:
153,192,41108,1,0,0:0:0:0:
51,192,41108,1,0,0:0:0:0:
460,192,41450,1,0,0:0:0:0:
51,192,41622,1,0,0:0:0:0:
358,192,41622,1,0,0:0:0:0:
256,192,41793,1,0,0:0:0:0:
358,192,41965,1,0,0:0:0:0:
153,192,41965,1,0,0:0:0:0:
256,192,42136,1,0,0:0:0:0:
460,192,42222,1,0,0:0:0:0:
256,192,42308,1,0,0:0:0:0:
51,192,42479,1,0,0:0:0:0:
51,192,42650,1,0,0:0:0:0:
256,192,42993,1,0,0:0:0:0:
358,192,43336,1,0,0:0:0:0:
153,192,43336,1,0,0:0:0:0:
460,192,43679,1,0,0:0:0:0:
256,192,43850,1,0,0:0:0:0:
51,192,43850,1,0,0:0:0:0:
358,192,44193,1,0,0:0:0:0:
460,192,44279,1,0,0:0:0:0:
256,192,44365,1,0,0:0:0:0:
358,192,44450,1,0,0:0:0:0:
153,192,44536,1,0,0:0:0:0:
256,192,44622,1,0,0:0:0:0:
51,192,44708,1,0,0:0:0:0:
153,192,44793,1,0,0:0:0:0:
51,192,44879,1,0,0:0:0:0:
256,192,44965,1,0,0:0:0:0:
153,192,45050,1,0,0:0:0:0:
358,192,45136,1,0,0:0:0:0:
256,192,45222,1,0,0:0:0:0:
460,192,45308,1,0,0:0:0:0:
358,192,45393,1,0,0:0:0:0:
51,192,45393,1,0,0:0:0:0:
153,192,45736,1,0,0:0:0:0:
460,192,46079,1,0,0:0:0:0:
358,192,46079,1,0,0:0:0:0:
256,192,46422,1,0,0:0:0:0:
153,192,46593,1,0,0:0:0:0:
51,192,46593,1,0,0:0:0:0:
358,192,46936,1,0,0:0:0:0:
51,192,47108,1,0,0:0:0:0:
256,192,47108,1,0,0:0:0:0:
153,192,47279,1,0,0:0:0:0:
460,192,47450,1,0,0:0:0:0:
256,192,47450,1,0,0:0:0:0:
153,192,47622,1,0,0:0:0:0:
256,192,47708,1,0,0:0:0:0:
153,192,47793,1,0,0:0:0:0:
256,192,47879,1,0,0:0:0:0:
358,192,47965,1,0,0:0:0:0:
51,192,47965,1,0,0:0:0:0:
51,192,48136,1,0,0:0:0:0:
460,192,48136,1,0,0:0:0:0:
460,192,48308,1,0,0:0:0:0:
358,192,48393,1,0,0:0:0:0:
256,192,48479,1,0,0:0:0:0:
358,192,48650,1,0,0:0:0:0:
153,192,48822,1,0,0:0:0:0:
460,192,48822,1,0,0:0:0:0:
153,192,48993,1,0,0:0:0:0:
256,192,49079,1,0,0:0:0:0:
358,192,49165,1,0,0:0:0:0:
51,192,49336,1,0,0:0:0:0:
153,192,49336,128,0,49679:0:0:0:0:
256,192,49679,1,0,0:0:0:0:
358,192,49765,1,0,0:0:0:0:
51,192,49850,1,0,0:0:0:0:
460,192,49850,1,0,0:0:0:0:
358,192,49936,1,0,0:0:0:0:
256,192,50022,1,0,0:0:0:0:
358,192,50108,1,0,0:0:0:0:
51,192,50193,1,0,0:0:0:0:
153,192,50193,1,0,0:0:0:0:
256,192,50365,1,0,0:0:0:0:
358,192,50450,1,0,0:0:0:0:
460,192,50536,1,0,0:0:0:0:
51,192,50879,1,0,0:0:0:0:
256,192,51050,1,0,0:0:0:0:
51,192,51222,1,0,0:0:0:0:
256,192,51393,128,0,51736:0:0:0:0:
460,192,51736,1,0,0:0:0:0:
153,192,51908,1,0,0:0:0:0:
460,192,52079,1,0,0:0:0:0:
256,192,52422,1,0,0:0:0:0:
256,192,52765,1,0,0:0:0:0:
358,192,53108,1,0,0:0:0:0:
256,192,53193,1,0,0:0:0:0:
153,192,53279,1,0,0:0:0:0:
358,192,53450,128,0,53793:0:0:0:0:
51,192,53793,1,0,0:0:0:0:
256,192,53965,1,0,0:0:0:0:
51,192,54136,1,0,0:0:0:0:
256,192,54479,1,0,0:0:0:0:
358,192,54650,1,0,0:0:0:0:
460,192,54822,1,0,0:0:0:0:
256,192,55165,1,0,0:0:0:0:
153,192,55508,1,0,0:0:0:0:
153,192,55593,1,0,0:0:0:0:
460,192,55679,1,0,0:0:0:0:
51,192,55850,1,0,0:0:0:0:
51,192,55936,1,0,0:0:0:0:
358,192,56022,128,0,56365:0:0:0:0:
256,192,56193,128,0,56365:0:0:0:0:
51,192,56365,1,0,0:0:0:0:
358,192,56536,1,0,0:0:0:0:
51,192,56708,1,0,0:0:0:0:
358,192,56879,1,0,0:0:0:0:
153,192,57222,1,0,0:0:0:0:
256,192,57393,1,0,0:0:0:0:
460,192,57565,1,0,0:0:0:0:
153,192,57908,128,0,58079:0:0:0:0:
153,192,58250,128,0,58422:0:0:0:0:
358,192,58593,1,0,0:0:0:0:
153,192,58679,1,0,0:0:0:0:
358,192,58765,1,0,0:0:0:0:
51,192,58936,1,0,0:0:0:0:
256,192,59108,1,0,0:0:0:0:
51,192,59279,1,0,0:0:0:0:
460,192,59622,1,0,0:0:0:0:
256,192,59793,1,0,0:0:0:0:
460,192,59965,1,0,0:0:0:0:
153,192,60136,1,0,0:0:0:0:
460,192,60308,1,0,0:0:0:0:
51,192,60479,1,0,0:0:0:0:
358,192,60479,1,0,0:0:0:0:
256,192,60650,1,0,0:0:0:0:
256,192,60736,1,0,0:0:0:0:
153,192,60822,1,0,0:0:0:0:
358,192,60993,1,0,0:0:0:0:
358,192,61079,1,0,0:0:0:0:
153,192,61165,1,0,0:0:0:0:
460,192,61336,1,0,0:0:0:0:
51,192,61336,1,0,0:0:0:0:
51,192,61508,128,0,61850:0:0:0:0:
256,192,61508,128,0,61850:0:0:0:0:
460,192,62022,128,0,62193:0:0:0:0:
256,192,62193,1,0,0:0:0:0:
358,192,62365,128,0,62536:0:0:0:0:
153,192,62536,1,0,0:0:0:0:
256,192,62708,128,0,62879:0:0:0:0:
153,192,62879,1,0,0:0:0:0:
358,192,63050,128,0,63222:0:0:0:0:
256,192,63222,1,0,0:0:0:0:
460,192,63393,128,0,63565:0:0:0:0:
51,192,63565,1,0,0:0:0:0:
153,192,63736,128,0,63908:0:0:0:0:
51,192,63908,1,0,0:0:0:0:
358,192,64079,128,0,64250:0:0:0:0:
256,192,64250,1,0,0:0:0:0:
153,192,64422,128,0,64593:0:0:0:0:
51,192,64593,1,0,0:0:0:0:
358,192,64765,128,0,64936:0:0:0:0:
256,192,64936,1,0,0:0:0:0:
460,192,65108,128,0,65279:0:0:0:0:
153,192,65279,1,0,0:0:0:0:
358,192,65450,128,0,65622:0:0:0:0:
256,192,65622,1,0,0:0:0:0:
460,192,65793,128,0,65965:0:0:0:0:
256,192,65965,1,0,0:0:0:0:
358,192,66136,128,0,66308:0:0:0:0:
51,192,66308,1,0,0:0:0:0:
256,192,66479,128,0,66650:0:0:0:0:
358,192,66650,1,0,0:0:0:0:
153,192,66822,128,0,66993:0:0:0:0:
460,192,66993,1,0,0:0:0:0:
51,192,67165,128,0,67336:0:0:0:0:
460,192,67336,1,0,0:0:0:0:
256,192,67336,1,0,0:0:0:0:
153,192,67508,128,0,67679:0:0:0:0:
358,192,67679,1,0,0:0:0:0:
460,192,67679,1,0,0:0:0:0:
256,192,67850,128,0,68022:0:0:0:0:
460,192,68022,1,0,0:0:0:0:
51,192,68022,1,0,0:0:0:0:
358,192,68193,128,0,68365:0:0:0:0:
153,192,68365,1,0,0:0:0:0:
256,192,68365,1,0,0:0:0:0:
460,192,68536,128,0,68708:0:0:0:0:
51,192,68708,1,0,0:0:0:0:
358,192,68708,1,0,0:0:0:0:
256,192,68879,128,0,69050:0:0:0:0:
460,192,69050,1,0,0:0:0:0:
358,192,69050,1,0,0:0:0:0:
358,192,69222,128,0,69393:0:0:0:0:
51,192,69393,1,0,0:0:0:0:
256,192,69393,1,0,0:0:0:0:
153,192,69565,128,0,69736:0:0:0:0:
460,192,69736,1,0,0:0:0:0:
256,192,69736,1,0,0:0:0:0:
358,192,69908,128,0,70079:0:0:0:0:
51,192,70079,1,0,0:0:0:0:
153,192,70079,1,0,0:0:0:0:
256,192,70165,1,0,0:0:0:0:
358,192,70250,1,0,0:0:0:0:
460,192,70336,1,0,0:0:0:0:
51,192,70422,1,0,0:0:0:0:
256,192,70422,1,0,0:0:0:0:
153,192,70508,1,0,0:0:0:0:
256,192,70593,1,0,0:0:0:0:
358,192,70679,1,0,0:0:0:0:
460,192,70765,1,0,0:0:0:0:
153,192,70765,1,0,0:0:0:0:
256,192,70850,1,0,0:0:0:0:
358,192,70936,1,0,0:0:0:0:
460,192,71022,1,0,0:0:0:0:
51,192,71108,1,0,0:0:0:0:
256,192,71108,1,0,0:0:0:0:
153,192,71193,1,0,0:0:0:0:
358,192,71279,1,0,0:0:0:0:
153,192,71365,1,0,0:0:0:0:
256,192,71450,1,0,0:0:0:0:
51,192,71450,1,0,0:0:0:0:
256,192,71708,1,0,0:0:0:0:
460,192,71708,1,0,0:0:0:0:
358,192,71965,1,0,0:0:0:0:
51,192,71965,1,0,0:0:0:0:
460,192,72136,1,0,0:0:0:0:
153,192,72136,1,0,0:0:0:0:
51,192,72308,1,0,0:0:0:0:
256,192,72308,1,0,0:0:0:0:
153,192,72393,1,0,0:0:0:0:
358,192,72479,1,0,0:0:0:0:
460,192,72479,1,0,0:0:0:0:
51,192,72822,1,0,0:0:0:0:
256,192,72822,1,0,0:0:0:0:
153,192,72993,1,0,0:0:0:0:
460,192,72993,1,0,0:0:0:0:
256,192,73079,1,0,0:0:0:0:
358,192,73165,1,0,0:0:0:0:
460,192,73336,1,0,0:0:0:0:
51,192,73336,1,0,0:0:0:0:
153,192,73508,1,0,0:0:0:0:
460,192,73508,1,0,0:0:0:0:
256,192,73593,1,0,0:0:0:0:
358,192,73679,1,0,0:0:0:0:
460,192,73850,1,0,0:0:0:0:
51,192,73850,1,0,0:0:0:0:
460,192,74022,1,0,0:0:0:0:
51,192,74022,1,0,0:0:0:0:
153,192,74108,1,0,0:0:0:0:
256,192,74193,1,0,0:0:0:0:
51,192,74365,1,0,0:0:0:0:
256,192,74450,1,0,0:0:0:0:
153,192,74536,1,0,0:0:0:0:
358,192,74622,1,0,0:0:0:0:
256,192,74708,1,0,0:0:0:0:
460,192,74793,1,0,0:0:0:0:
358,192,74879,1,0,0:0:0:0:
256,192,74965,1,0,0:0:0:0:
153,192,75050,1,0,0:0:0:0:
51,192,75136,1,0,0:0:0:0:
153,192,75222,1,0,0:0:0:0:
256,192,75308,1,0,0:0:0:0:
358,192,75393,1,0,0:0:0:0:
460,192,75479,1,0,0:0:0:0:
51,192,75565,1,0,0:0:0:0:
256,192,75565,1,0,0:0:0:0:
358,192,75736,1,0,0:0:0:0:
153,192,75736,1,0,0:0:0:0:
256,192,75822,1,0,0:0:0:0:
358,192,75908,1,0,0:0:0:0:
51,192,76079,1,0,0:0:0:0:
460,192,76079,1,0,0:0:0:0:
153,192,76250,1,0,0:0:0:0:
358,192,76250,1,0,0:0:0:0:
256,192,76336,1,0,0:0:0:0:
153,192,76422,1,0,0:0:0:0:
51,192,76593,1,0,0:0:0:0:
256,192,76593,1,0,0:0:0:0:
358,192,76765,1,0,0:0:0:0:
153,192,76765,1,0,0:0:0:0:
256,192,76850,1,0,0:0:0:0:
51,192,76936,1,0,0:0:0:0:
460,192,77108,1,0,0:0:0:0:
153,192,77108,1,0,0:0:0:0:
358,192,77279,1,0,0:0:0:0:
51,192,77365,1,0,0:0:0:0:
358,192,77450,1,0,0:0:0:0:
51,192,77536,1,0,0:0:0:0:
460,192,77622,1,0,0:0:0:0:
256,192,77622,1,0,0:0:0:0:
153,192,77708,1,0,0:0:0:0:
51,192,77793,1,0,0:0:0:0:
460,192,77879,1,0,0:0:0:0:
256,192,77879,1,0,0:0:0:0:
153,192,77965,1,0,0:0:0:0:
51,192,78050,1,0,0:0:0:0:
460,192,78136,1,0,0:0:0:0:
256,192,78136,1,0,0:0:0:0:
51,192,78308,1,0,0:0:0:0:
153,192,78308,1,0,0:0:0:0:
460,192,78479,1,0,0:0:0:0:
358,192,78479,1,0,0:0:0:0:
51,192,78565,1,0,0:0:0:0:
153,192,78650,1,0,0:0:0:0:
153,192,78822,1,0,0:0:0:0:
51,192,78822,1,0,0:0:0:0:
460,192,78993,1,0,0:0:0:0:
358,192,78993,1,0,0:0:0:0:
51,192,79079,1,0,0:0:0:0:
153,192,79165,1,0,0:0:0:0:
153,192,79336,1,0,0:0:0:0:
51,192,79336,1,0,0:0:0:0:
460,192,79508,1,0,0:0:0:0:
358,192,79508,1,0,0:0:0:0:
256,192,79593,1,0,0:0:0:0:
153,192,79679,1,0,0:0:0:0:
358,192,79850,1,0,0:0:0:0:
51,192,79850,1,0,0:0:0:0:
153,192,80022,1,0,0:0:0:0:
256,192,80108,1,0,0:0:0:0:
460,192,80193,1,0,0:0:0:0:
153,192,80365,1,0,0:0:0:0:
256,192,80450,1,0,0:0:0:0:
460,192,80536,1,0,0:0:0:0:
256,192,80622,1,0,0:0:0:0:
153,192,80708,1,0,0:0:0:0:
460,192,80879,1,0,0:0:0:0:
51,192,81050,1,0,0:0:0:0:
256,192,81050,1,0,0:0:0:0:
460,192,81222,1,0,0:0:0:0:
358,192,81222,1,0,0:0:0:0:
153,192,81308,1,0,0:0:0:0:
256,192,81393,1,0,0:0:0:0:
51,192,81565,1,0,0:0:0:0:
460,192,81565,1,0,0:0:0:0:
460,192,81736,1,0,0:0:0:0:
358,192,81736,1,0,0:0:0:0:
153,192,81822,1,0,0:0:0:0:
256,192,81908,1,0,0:0:0:0:
460,192,82079,1,0,0:0:0:0:
51,192,82079,1,0,0:0:0:0:
460,192,82250,1,0,0:0:0:0:
358,192,82250,1,0,0:0:0:0:
256,192,82336,1,0,0:0:0:0:
256,192,82422,1,0,0:0:0:0:
51,192,82593,1,0,0:0:0:0:
153,192,82679,1,0,0:0:0:0:
256,192,82765,1,0,0:0:0:0:
358,192,82850,1,0,0:0:0:0:
256,192,82936,1,0,0:0:0:0:
256,192,83022,1,0,0:0:0:0:
153,192,83108,1,0,0:0:0:0:
256,192,83193,1,0,0:0:0:0:
51,192,83279,1,0,0:0:0:0:
153,192,83365,1,0,0:0:0:0:
358,192,83450,1,0,0:0:0:0:
358,192,83536,1,0,0:0:0:0:
256,192,83622,1,0,0:0:0:0:
153,192,83708,1,0,0:0:0:0:
51,192,83793,1,0,0:0:0:0:
460,192,83793,1,0,0:0:0:0:
153,192,83965,1,0,0:0:0:0:
358,192,83965,1,0,0:0:0:0:
256,192,84050,1,0,0:0:0:0:
358,192,84136,1,0,0:0:0:0:
460,192,84308,1,0,0:0:0:0:
51,192,84308,1,0,0:0:0:0:
358,192,84479,1,0,0:0:0:0:
153,192,84479,1,0,0:0:0:0:
256,192,84565,1,0,0:0:0:0:
358,192,84650,1,0,0:0:0:0:
460,192,84822,1,0,0:0:0:0:
51,192,84822,1,0,0:0:0:0:
358,192,84993,1,0,0:0:0:0:
153,192,84993,1,0,0:0:0:0:
256,192,85079,1,0,0:0:0:0:
153,192,85165,1,0,0:0:0:0:
460,192,85336,1,0,0:0:0:0:
256,192,85422,1,0,0:0:0:0:
460,192,85508,1,0,0:0:0:0:
153,192,85593,1,0,0:0:0:0:
358,192,85679,1,0,0:0:0:0:
153,192,85765,1,0,0:0:0:0:
256,192,85850,1,0,0:0:0:0:
51,192,85936,1,0,0:0:0:0:
256,192,86022,1,0,0:0:0:0:
153,192,86108,1,0,0:0:0:0:
358,192,86193,1,0,0:0:0:0:
153,192,86279,1,0,0:0:0:0:
256,192,86365,1,0,0:0:0:0:
51,192,86450,1,0,0:0:0:0:
153,192,86536,1,0,0:0:0:0:
460,192,86536,1,0,0:0:0:0:
358,192,86708,1,0,0:0:0:0:
51,192,86708,1,0,0:0:0:0:
256,192,86793,1,0,0:0:0:0:
51,192,86879,1,0,0:0:0:0:
460,192,87050,1,0,0:0:0:0:
153,192,87050,1,0,0:0:0:0:
358,192,87222,1,0,0:0:0:0:
51,192,87222,1,0,0:0:0:0:
256,192,87308,1,0,0:0:0:0:
51,192,87393,1,0,0:0:0:0:
460,192,87565,1,0,0:0:0:0:
153,192,87565,1,0,0:0:0:0:
51,192,87736,1,0,0:0:0:0:
256,192,87736,1,0,0:0:0:0:
358,192,87822,1,0,0:0:0:0:
153,192,87908,1,0,0:0:0:0:
460,192,88079,1,0,0:0:0:0:
51,192,88079,1,0,0:0:0:0:
358,192,88250,1,0,0:0:0:0:
256,192,88336,1,0,0:0:0:0:
358,192,88422,1,0,0:0:0:0:
256,192,88508,1,0,0:0:0:0:
51,192,88593,1,0,0:0:0:0:
153,192,88593,1,0,0:0:0:0:
460,192,88679,1,0,0:0:0:0:
256,192,88765,1,0,0:0:0:0:
51,192,88850,1,0,0:0:0:0:
153,192,88850,1,0,0:0:0:0:
460,192,88936,1,0,0:0:0:0:
256,192,89022,1,0,0:0:0:0:
51,192,89108,1,0,0:0:0:0:
153,192,89108,1,0,0:0:0:0:
256,192,89279,1,0,0:0:0:0:
460,192,89279,1,0,0:0:0:0:
51,192,89450,1,0,0:0:0:0:
153,192,89450,1,0,0:0:0:0:
256,192,89536,1,0,0:0:0:0:
153,192,89622,1,0,0:0:0:0:
460,192,89793,1,0,0:0:0:0:
51,192,89793,1,0,0:0:0:0:
153,192,89965,1,0,0:0:0:0:
51,192,89965,1,0,0:0:0:0:
256,192,90050,1,0,0:0:0:0:
153,192,90136,1,0,0:0:0:0:
460,192,90308,1,0,0:0:0:0:
51,192,90308,1,0,0:0:0:0:
51,192,90479,1,0,0:0:0:0:
153,192,90479,1,0,0:0:0:0:
256,192,90565,1,0,0:0:0:0:
51,192,90650,1,0,0:0:0:0:
51,192,90822,1,0,0:0:0:0:
256,192,90908,1,0,0:0:0:0:
460,192,90993,1,0,0:0:0:0:
153,192,91079,1,0,0:0:0:0:
256,192,91165,1,0,0:0:0:0:
358,192,91250,1,0,0:0:0:0:
51,192,91336,1,0,0:0:0:0:
153,192,91422,1,0,0:0:0:0:
358,192,91508,1,0,0:0:0:0:
256,192,91593,1,0,0:0:0:0:
358,192,91679,1,0,0:0:0:0:
460,192,91765,1,0,0:0:0:0:
51,192,91850,1,0,0:0:0:0:
256,192,91936,1,0,0:0:0:0:
460,192,92022,1,0,0:0:0:0:
358,192,92022,1,0,0:0:0:0:
51,192,92193,1,0,0:0:0:0:
460,192,92193,1,0,0:0:0:0:
153,192,92279,1,0,0:0:0:0:
51,192,92365,1,0,0:0:0:0:
460,192,92536,1,0,0:0:0:0:
358,192,92536,1,0,0:0:0:0:
51,192,92708,1,0,0:0:0:0:
460,192,92708,1,0,0:0:0:0:
153,192,92793,1,0,0:0:0:0:
51,192,92879,1,0,0:0:0:0:
358,192,93050,1,0,0:0:0:0:
460,192,93050,1,0,0:0:0:0:
51,192,93222,1,0,0:0:0:0:
153,192,93222,1,0,0:0:0:0:
256,192,93222,1,0,0:0:0:0:
256,192,93393,1,0,0:0:0:0:
51,192,93479,1,0,0:0:0:0:
358,192,93565,1,0,0:0:0:0:
153,192,93650,1,0,0:0:0:0:
460,192,93736,1,0,0:0:0:0:
358,192,93822,1,0,0:0:0:0:
153,192,93908,1,0,0:0:0:0:
460,192,93993,1,0,0:0:0:0:
51,192,94079,1,0,0:0:0:0:
460,192,94079,1,0,0:0:0:0:
153,192,94336,1,0,0:0:0:0:
460,192,94422,1,0,0:0:0:0:
51,192,94593,1,0,0:0:0:0:
153,192,94679,1,0,0:0:0:0:
256,192,94765,1,0,0:0:0:0:
460,192,94765,1,0,0:0:0:0:
460,192,95108,1,0,0:0:0:0:
153,192,95108,1,0,0:0:0:0:
460,192,95450,1,0,0:0:0:0:
256,192,95450,1,0,0:0:0:0:
51,192,95622,1,0,0:0:0:0:
256,192,95708,1,0,0:0:0:0:
460,192,95793,1,0,0:0:0:0:
153,192,95793,1,0,0:0:0:0:
51,192,95965,1,0,0:0:0:0:
460,192,96136,1,0,0:0:0:0:
358,192,96308,1,0,0:0:0:0:
460,192,96479,1,0,0:0:0:0:
153,192,96479,1,0,0:0:0:0:
256,192,96650,1,0,0:0:0:0:
460,192,96822,1,0,0:0:0:0:
153,192,96822,1,0,0:0:0:0:
51,192,96993,1,0,0:0:0:0:
256,192,97079,1,0,0:0:0:0:
460,192,97165,1,0,0:0:0:0:
358,192,97165,1,0,0:0:0:0:
256,192,97336,1,0,0:0:0:0:
460,192,97508,1,0,0:0:0:0:
51,192,97508,1,0,0:0:0:0:
460,192,97850,1,0,0:0:0:0:
358,192,97850,1,0,0:0:0:0:
460,192,98193,1,0,0:0:0:0:
153,192,98193,1,0,0:0:0:0:
460,192,98536,1,0,0:0:0:0:
358,192,98536,1,0,0:0:0:0:
256,192,98708,1,0,0:0:0:0:
460,192,98879,1,0,0:0:0:0:
256,192,99050,1,0,0:0:0:0:
153,192,99136,1,0,0:0:0:0:
358,192,99222,1,0,0:0:0:0:
51,192,99308,1,0,0:0:0:0:
460,192,99393,1,0,0:0:0:0:
153,192,99479,1,0,0:0:0:0:
460,192,99565,1,0,0:0:0:0:
51,192,99565,1,0,0:0:0:0:
358,192,99736,1,0,0:0:0:0:
153,192,99736,1,0,0:0:0:0:
51,192,99908,1,0,0:0:0:0:
460,192,99908,128,0,100250:0:0:0:0:
51,192,100250,1,0,0:0:0:0:
153,192,100250,1,0,0:0:0:0:
51,192,100593,1,0,0:0:0:0:
256,192,100593,1,0,0:0:0:0:
51,192,100936,1,0,0:0:0:0:
358,192,100936,1,0,0:0:0:0:
51,192,101279,1,0,0:0:0:0:
460,192,101279,1,0,0:0:0:0:
256,192,101450,1,0,0:0:0:0:
51,192,101622,1,0,0:0:0:0:
358,192,101793,1,0,0:0:0:0:
51,192,101965,1,0,0:0:0:0:
460,192,101965,1,0,0:0:0:0:
256,192,102050,1,0,0:0:0:0:
358,192,102136,1,0,0:0:0:0:
51,192,102308,1,0,0:0:0:0:
256,192,102308,1,0,0:0:0:0:
153,192,102479,1,0,0:0:0:0:
256,192,102565,1,0,0:0:0:0:
51,192,102650,1,0,0:0:0:0:
153,192,102650,1,0,0:0:0:0:
256,192,102736,1,0,0:0:0:0:
358,192,102822,1,0,0:0:0:0:
51,192,102993,1,0,0:0:0:0:
460,192,102993,1,0,0:0:0:0:
358,192,103165,1,0,0:0:0:0:
153,192,103165,1,0,0:0:0:0:
256,192,103250,1,0,0:0:0:0:
153,192,103336,1,0,0:0:0:0:
358,192,103336,1,0,0:0:0:0:
460,192,103508,1,0,0:0:0:0:
51,192,103508,1,0,0:0:0:0:
358,192,103679,1,0,0:0:0:0:
153,192,103679,1,0,0:0:0:0:
51,192,103850,1,0,0:0:0:0:
256,192,103850,1,0,0:0:0:0:
358,192,103936,1,0,0:0:0:0:
460,192,104022,1,0,0:0:0:0:
358,192,104193,1,0,0:0:0:0:
153,192,104193,1,0,0:0:0:0:
51,192,104536,1,0,0:0:0:0:
256,192,104536,1,0,0:0:0:0:
153,192,104622,1,0,0:0:0:0:
256,192,104708,1,0,0:0:0:0:
460,192,104879,1,0,0:0:0:0:
256,192,104879,1,0,0:0:0:0:
358,192,104965,1,0,0:0:0:0:
460,192,105050,1,0,0:0:0:0:
460,192,105308,1,0,0:0:0:0:
51,192,105393,1,0,0:0:0:0:
51,192,105565,1,0,0:0:0:0:
460,192,105908,1,0,0:0:0:0:
358,192,105993,1,0,0:0:0:0:
256,192,106079,1,0,0:0:0:0:
51,192,106079,1,0,0:0:0:0:
51,192,106250,1,0,0:0:0:0:
153,192,106336,1,0,0:0:0:0:
256,192,106422,1,0,0:0:0:0:
460,192,106422,128,0,109165:0:0:0:0:
51,192,107450,1,0,0:0:0:0:
153,192,107508,1,0,0:0:0:0:
256,192,107565,1,0,0:0:0:0:
358,192,107622,1,0,0:0:0:0:
